<?xml version="1.0" standalone="no"?>
<!DOCTYPE svg PUBLIC "-//W3C//DTD SVG 1.1//EN" "http://www.w3.org/Graphics/SVG/1.1/DTD/svg11.dtd" >
<svg xmlns="http://www.w3.org/2000/svg">
<metadata>
<json>
<![CDATA[
{
	"fontFamily": "h5p-core",
	"description": "Font generated by IcoMoon.",
	"majorVersion": 1,
	"minorVersion": 1,
	"version": "Version 1.1",
	"fontId": "h5p-core",
	"psName": "h5p-core",
	"subFamily": "Regular",
	"fullName": "h5p-core"
}
]]>
</json>
</metadata>
<defs>
<font id="h5p-core" horiz-adv-x="1024">
<font-face units-per-em="1024" ascent="960" descent="-64" />
<missing-glyph horiz-adv-x="1024" />
<glyph unicode="&#x20;" horiz-adv-x="512" d="" />
<glyph unicode="&#xe565;" glyph-name="arrow-down" data-tags="arrow-down" d="M234 565.667h556l-278-278z" />
<glyph unicode="&#xe566;" glyph-name="arrow-left" data-tags="arrow-left" d="M381 164.667v524l262-262z" />
<glyph unicode="&#xe58e;" glyph-name="colapse" data-tags="colapse" d="M512 584.667l256-256-60-60-196 196-196-196-60 60z" />
<glyph unicode="&#xe58f;" glyph-name="expand" data-tags="expand" d="M708 584.667l60-60-256-256-256 256 60 60 196-196z" />
<glyph unicode="&#xe600;" glyph-name="move" data-tags="move" d="M386.662 853.061h71.27v-71.27h-71.27v71.27zM566.067 853.061h71.27v-71.27h-71.27v71.27zM386.662 696.798h71.27v-71.27h-71.27v71.27zM566.067 696.798h71.27v-71.27h-71.27v71.27zM386.662 540.433h71.27v-71.27h-71.27v71.27zM566.067 540.433h71.27v-71.27h-71.27v71.27zM386.662 384.171h71.27v-71.27h-71.27v71.27zM566.067 384.171h71.27v-71.27h-71.27v71.27zM386.662 227.806h71.27v-71.27h-71.27v71.27zM566.067 227.806h71.27v-71.27h-71.27v71.27zM386.662 71.544h71.27v-71.27h-71.27v71.27zM566.067 71.544h71.27v-71.27h-71.27v71.27z" />
<glyph unicode="&#xe601;" glyph-name="check-mark" data-tags="check-mark" d="M454.301 395.253l-116.917 116.917-84.781-84.707 201.696-201.697 317.097 317.097-84.781 84.706z" />
<glyph unicode="&#xe888;" glyph-name="arrow-up-circle" data-tags="arrow-up-circle" d="M513.344 689.068c-148.616 0-264.722-120.75-260.077-269.367 0-125.395 88.241-232.212 208.991-255.434v213.636h-92.885c-13.933 0-13.933 9.288-9.288 18.577l139.327 171.838c4.645 9.288 13.933 9.288 23.221 4.645 0 0 4.645-4.645 4.645-4.645l139.327-171.838c9.288-9.288 4.645-18.577-9.288-18.577h-92.885v-213.636c143.972 32.51 232.212 171.838 199.703 315.808-23.221 120.75-130.039 204.347-250.789 208.991z" />
<glyph unicode="&#xe889;" glyph-name="info-circle" data-tags="info-circle" d="M512 686.933c-144.077 0-260.266-116.191-260.266-260.266s116.191-260.266 260.266-260.266 260.266 116.191 260.266 260.266v0c0 139.429-116.191 255.619-260.266 260.266zM470.171 635.81h88.305v-69.714h-88.305v69.714zM600.305 245.41h-181.257v51.123h51.123v162.666h-51.123v51.123h139.429v-218.438h46.477l-4.648-46.477z" />
<glyph unicode="&#xe88a;" glyph-name="search" data-tags="search" d="M769.263 223.163l-110.68 110.68c71.943 99.612 49.806 243.494-49.806 315.437s-243.494 44.27-315.437-55.339c-71.943-99.612-49.806-243.494 49.806-315.437 77.475-55.339 182.623-55.339 260.098 0l110.68-110.68c5.533-5.533 11.068-5.533 16.601 0 0 0 0 0 0 0l33.205 33.205c11.068 5.533 11.068 16.601 5.533 22.137 0 0 0 0 0 0zM475.96 300.638c-88.544 0-160.486 71.943-160.486 160.486s71.943 160.486 160.486 160.486 160.486-71.943 160.486-160.486-71.943-160.486-160.486-160.486v0z" />
<glyph unicode="&#xe88c;" glyph-name="fullscreen" data-tags="fullscreen" d="M357.075 572.983c5.737 5.737 0 5.737-5.737 5.737l-103.284 11.476c-5.737 5.737-11.476 0-11.476-5.737l11.476-109.021c0-5.737 5.737-5.737 5.737-5.737l103.284 103.284zM282.484 509.865l63.118-63.118c5.737-5.737 11.476-5.737 17.213 0l22.953 22.953c5.737 5.737 5.737 11.476 0 17.213l-63.118 57.379-40.166-34.429zM775.945 469.699c5.737-5.737 5.737 0 5.737 5.737l11.476 109.021c0 5.737-5.737 11.476-11.476 11.476l-109.021-11.476c-5.737 0-5.737-5.737-5.737-5.737l109.021-109.021zM712.83 544.294l-63.118-63.118c-5.737-5.737-5.737-11.476 0-17.213l22.953-22.953c5.737-5.737 11.476-5.737 17.213 0l63.118 63.118-40.166 40.166zM678.401 263.134c-5.737-5.737 0-5.737 5.737-5.737l109.021-11.476c5.737 0 11.476 5.737 11.476 11.476l-17.213 103.284c0 5.737-5.737 5.737-5.737 5.737l-103.284-103.284zM747.256 331.989l-63.118 63.118c-5.737 5.737-11.476 5.737-17.213 0l-22.953-22.953c-5.737-5.737-5.737-11.476 0-17.213l63.118-63.118 40.166 40.166zM253.794 366.418c-5.737 5.737-5.737 0-5.737-5.737l-11.476-109.021c0-5.737 5.737-11.476 11.476-11.476l109.021 11.476c5.737 0 5.737 5.737 5.737 5.737l-109.021 109.021zM322.649 291.824l63.118 63.118c5.737 5.737 5.737 11.476 0 17.213l-22.953 22.953c-5.737 5.737-11.476 5.737-17.213 0l-63.118-63.118 40.166-40.166zM150.51 676.267v-499.201h722.979v499.201h-722.979zM833.324 217.232h-636.911v413.13h636.911v-413.13z" />
<glyph unicode="&#xe88e;" glyph-name="h5p" data-tags="h5p" d="M891.406 574.524c-22.319 16.738-50.216 27.897-89.273 27.897h-139.487v-66.954h-156.225l-11.159-55.795c11.159 5.579 27.897 11.159 39.057 11.159s22.319 0 33.476 0c33.476 0 66.954-11.159 89.273-33.476s33.476-50.216 33.476-83.692c0-22.319-5.579-44.635-16.738-66.954s-27.897-39.057-50.216-50.216c-5.579-5.579-16.738 0-22.319-11.159h117.17v133.908h66.954c44.635 0 78.113 11.159 100.43 27.897 22.319 22.319 33.476 50.216 33.476 83.692 0 39.057-11.159 66.954-27.897 83.692v0zM796.555 462.935c-11.159-5.579-22.319-11.159-44.635-11.159h-33.476v83.692h39.057c22.319 0 33.476-5.579 44.635-11.159 5.579-5.579 11.159-16.738 11.159-27.897 0-16.738-5.579-27.897-16.738-33.476v0zM523.16 423.878c-16.738 0-33.476-11.159-44.635-27.897l-94.851 16.738 44.635 195.281h-94.851v-150.646h-117.17v150.646h-111.589v-362.667h111.589v133.908h117.17v-133.908h139.487c-16.738 11.159-33.476 11.159-44.635 22.319s-22.319 22.319-27.897 33.476c-5.579 11.159-11.159 22.319-16.738 39.057l94.851 16.738c5.579-16.738 22.319-27.897 44.635-27.897 27.897 0 50.216 22.319 50.216 50.216 0 22.319-22.319 44.635-50.216 44.635v0z" />
<glyph unicode="&#xe88f;" glyph-name="rights-of-use" data-tags="rights-of-use" d="M878.277 414.35c0-5.907 0-5.907 0-5.907-23.631-23.631-47.261-35.448-76.799-41.355-11.813 0-23.631-5.907-35.448-5.907s-17.724 0-29.537 0c0 0-5.907 0-5.907 5.907-64.985 59.079-135.877 118.153-200.863 183.139 0 0-5.907 0-5.907 0-23.631-5.907-47.261-11.813-70.892-17.724s-53.168 0-76.799 11.813c-17.724 11.813-23.631 17.724-29.537 35.448-5.907 5.907 0 23.631 11.813 23.631 41.355 11.813 88.616 29.537 129.971 47.261 11.813 5.907 29.537 5.907 41.355 5.907 5.907 0 11.813-5.907 11.813-5.907 41.355-17.724 82.709-29.537 124.060-47.261 0 0 5.907 0 5.907 0 29.537 5.907 64.985 17.724 94.523 23.631 5.907 0 5.907 0 5.907 0l106.34-212.676zM269.786 420.26c17.724 11.813 35.448 5.907 53.168-11.813 11.813-11.813 11.813-29.537 5.907-47.261 17.724 5.907 35.448-5.907 41.355-17.724 11.813-17.724 5.907-35.448-5.907-47.261 5.907 0 11.813 0 17.724 0 11.813-5.907 23.631-11.813 29.537-29.537s0-29.537-5.907-35.448c-5.907-5.907-11.813-11.813-17.724-17.724s-11.813-11.813-17.724-17.724-35.448-17.724-53.168 0c-29.537 29.537-53.168 64.985-82.709 94.523-17.724 23.631-35.448 41.355-47.261 64.985-5.907 11.813-11.813 17.724-11.813 29.537 0 5.907 0 17.724 5.907 23.631 11.813 11.813 17.724 17.724 29.537 29.537 17.724 17.724 47.261 11.813 64.985-5.907-5.907 0-5.907-5.907-5.907-11.813v0zM417.477 213.491l29.537-29.537c17.724-17.724 47.261-11.813 59.079 5.907l-5.907 5.907c-23.631 23.631-47.261 47.261-70.892 70.892-5.907 5.907-5.907 5.907-5.907 11.813s5.907 5.907 11.813 11.813c5.907 0 11.813 0 11.813-5.907 11.813-11.813 29.537-29.537 47.261-47.261 11.813-11.813 29.537-29.537 47.261-47.261 5.907-11.813 17.724-11.813 29.537-11.813 11.813 5.907 23.631 11.813 29.537 23.631 0 5.907 0 5.907 0 5.907-41.355 41.355-88.616 82.709-129.971 129.971-5.907 5.907-5.907 5.907-5.907 11.813 0 11.813 11.813 11.813 23.631 5.907 0 0 5.907 0 5.907-5.907 41.355-41.355 88.616-88.616 129.971-129.971 5.907-5.907 5.907-5.907 5.907-5.907 17.724 0 35.448 17.724 35.448 35.448 0 5.907 0 5.907 0 5.907-47.261 47.261-100.429 100.429-147.691 147.691-5.907 5.907-5.907 5.907-5.907 11.813s5.907 11.813 5.907 11.813c5.907 0 11.813 0 11.813-5.907 5.907-5.907 5.907-5.907 11.813-11.813 35.448-35.448 70.892-70.892 106.34-106.34 11.813-11.813 23.631-23.631 29.537-29.537 0 0 5.907-5.907 5.907 0 23.631 5.907 35.448 29.537 29.537 53.168h35.448c0 0 0 0 0 0 0-5.907 0-17.724 0-23.631-5.907-29.537-23.631-47.261-53.168-59.079 0 0-5.907 0-5.907-5.907-11.813-29.537-35.448-53.168-64.985-53.168-5.907 0-5.907 0-5.907-5.907-17.724-35.448-59.079-47.261-88.616-35.448-5.907 0-11.813 5.907-11.813 5.907-5.907-5.907-11.813-11.813-23.631-17.724-29.537-11.813-59.079-5.907-76.799 11.813-11.813 11.813-17.724 17.724-29.537 29.537 17.724 23.631 23.631 29.537 29.537 41.355v0 0zM252.062 727.459c29.537-11.813 64.985-23.631 94.523-29.537 35.448-11.813 64.985-23.631 100.429-29.537 0 0 0 0 5.907 0-17.724-5.907-35.448-11.813-47.261-17.724 0 0-5.907 0-5.907 0-47.261 11.813-94.523 23.631-135.877 41.355-5.907 0-5.907 0-5.907 0l-76.799-183.139c0-11.813 5.907-17.724 11.813-23.631s5.907-5.907 5.907-11.813c-5.907-5.907-11.813-17.724-23.631-23.631-17.724 17.724-29.537 35.448-29.537 64.985l88.616 212.676c-5.907-11.813 5.907 5.907 17.724 0v0z" />
<glyph unicode="&#xe890;" glyph-name="delete-circle" data-tags="delete-circle" d="M512 686.933c-147.107 0-260.266-118.817-260.266-260.266s118.817-260.266 260.266-260.266 260.266 118.817 260.266 260.266-113.158 260.266-260.266 260.266zM653.449 347.455c5.659-5.659 5.659-16.973 0-28.29l-33.949-33.949c-5.659-5.659-16.973-5.659-28.29 0l-79.212 79.212-79.212-79.212c-5.659-5.659-16.973-5.659-28.29 0l-33.949 33.949c-5.659 5.659-5.659 16.973 0 28.29l84.871 79.212-79.212 79.212c-5.659 5.659-5.659 16.973 0 28.29l33.949 33.949c5.659 5.659 16.973 5.659 28.29 0l73.554-84.871 79.212 79.212c5.659 5.659 16.973 5.659 28.29 0l33.949-33.949c5.659-5.659 5.659-16.973 0-28.29l-79.212-73.554 79.212-79.212z" />
<glyph unicode="&#xe891;" glyph-name="window" data-tags="window" d="M186.821 549.319c-5.704-5.704 0-5.704 5.704-5.704l108.394-11.41c5.704 0 11.41 5.704 11.41 11.41l-17.114 102.687c0 5.704-5.704 5.704-5.704 5.704l-102.687-102.687zM255.28 612.074l-62.752 62.752c-5.704 5.704-11.41 5.704-17.114 0l-17.114-22.821c-5.704-5.704-5.704-11.41 0-17.114l62.752-62.752 34.228 39.935zM734.49 646.302c-5.704 5.704-5.704 0-5.704-5.704l-11.41-108.394c0-5.704 5.704-11.41 11.41-11.41l108.394 11.41c5.704 0 5.704 5.704 5.704 5.704l-108.394 108.394zM797.242 572.14l62.752 62.752c5.704 5.704 5.704 11.41 0 17.114l-22.821 22.821c-5.704 5.704-11.41 5.704-17.114 0l-62.752-62.752 39.935-39.935zM831.473 309.717c5.704 5.704 0 5.704-5.704 5.704l-102.687 17.114c-5.704 0-11.41-5.704-11.41-11.41l11.41-108.394c0-5.704 5.704-5.704 5.704-5.704l102.687 102.687zM763.014 246.962l62.752-62.752c5.704-5.704 11.41-5.704 17.114 0l22.821 22.821c5.704 5.704 5.704 11.41 0 17.114l-62.752 62.752-39.935-39.935zM283.804 212.734c5.704-5.704 5.704 0 5.704 5.704l11.41 108.394c0 5.704-5.704 11.41-11.41 11.41l-108.394-11.41c-5.704 0-5.704-5.704-5.704-5.704l108.394-108.394zM221.052 281.193l-62.752-62.752c-5.704-5.704-5.704-11.41 0-17.114l22.821-22.821c5.704-5.704 11.41-5.704 17.114 0l62.752 62.752-39.935 39.935zM335.149 555.026v-239.605h347.998v239.605h-347.998zM637.507 355.355h-262.424v154.032h262.424v-154.032z" />
<glyph unicode="&#xe892;" glyph-name="code" data-tags="code" d="M446.523 311.303c6.235-6.235 6.235-12.472 6.235-18.707v-62.359c0-6.235-6.235-6.235-6.235-6.235l-230.728 155.897c-6.235 6.235-6.235 12.472-6.235 18.707v49.886c0 6.235 6.235 12.472 6.235 18.707l230.728 155.897c6.235 6.235 6.235 0 6.235-6.235v-62.359c0-6.235-6.235-12.472-6.235-18.707l-162.134-112.245c-6.235-6.235-6.235-6.235 0-12.472l162.134-99.776zM733.375 417.313c6.235 6.235 6.235 6.235 0 12.472l-155.897 112.245c-6.235 6.235-6.235 12.472-6.235 18.707v62.359c0 6.235 6.235 6.235 6.235 6.235l230.728-155.897c6.235-6.235 6.235-12.472 6.235-18.707v-49.886c0-6.235-6.235-12.472-6.235-18.707l-230.728-155.897c-6.235-6.235-6.235 0-6.235 6.235v62.359c0 6.235 6.235 12.472 6.235 18.707l155.897 99.776z" />
<glyph unicode="&#xe893;" glyph-name="download" data-tags="download" d="M353.050 512.027c-11.773 0-17.66-5.887-5.887-17.66l153.059-188.382c5.887-11.773 23.547-11.773 29.433 0l153.059 188.382c5.887 11.773 5.887 17.66-5.887 17.66h-323.782zM570.865 500.253v135.399c0 11.773-11.773 23.547-23.547 23.547h-70.643c-11.773 0-23.547-11.773-23.547-23.547v-141.286h117.739zM647.395 364.854c-5.887 0-17.66-5.887-23.547-11.773l-76.53-94.19c-5.887-5.887-17.66-17.66-23.547-23.547 0 0-5.887-5.887-11.773-5.887s-17.66 11.773-17.66 11.773c-5.887 5.887-17.66 17.66-23.547 23.547l-76.53 94.19c-5.887 5.887-17.66 11.773-23.547 11.773h-123.626c-5.887 0-17.66-5.887-17.66-17.66v-141.286c0-5.887 5.887-17.66 17.66-17.66h529.824c5.887 0 17.66 5.887 17.66 17.66v141.286c0 5.887-5.887 17.66-17.66 17.66l-129.513-5.887zM300.067 253.004c-17.66 0-29.433 11.773-29.433 29.433s11.773 29.433 29.433 29.433c17.66 0 29.433-11.773 29.433-29.433s-11.773-29.433-29.433-29.433v0z" />
<glyph unicode="&#xe894;" glyph-name="delete" data-tags="delete" d="M615.111 426.667l134.045 134.045c10.311 10.311 10.311 30.934 0 41.245l-61.866 61.866c-10.311 10.311-30.934 10.311-41.245 0l-134.045-134.045-134.045 134.045c-10.311 10.311-30.934 10.311-41.245 0l-61.866-61.866c-10.311-10.311-10.311-30.934 0-41.245l134.045-134.045-134.045-134.045c-10.311-10.311-10.311-30.934 0-41.245l61.866-61.866c10.311-10.311 30.934-10.311 41.245 0l134.045 134.045 134.045-134.045c10.311-10.311 30.934-10.311 41.245 0l61.866 61.866c10.311 10.311 10.311 30.934 0 41.245l-134.045 134.045z" />
<glyph unicode="&#xe900;" glyph-name="edit-image" data-tags="edit-image" d="M300.336 749.664c69.018 23.142 133.325 14.234 189.133-33.28 56.627-48.128 77.619-110.592 63.181-183.808-2.355-12.186 0.307-19.456 8.704-27.853 93.901-93.389 156.774-156.467 250.47-250.163 5.427-5.427 10.957-10.854 15.667-16.896 39.424-50.278 16.794-124.006-44.237-142.029-36.966-10.957-68.403 0-95.334 27.034-95.642 96.051-160.973 160.973-256.614 257.024-6.963 6.963-12.8 8.909-22.63 6.758-117.76-26.317-229.171 60.826-231.731 181.453-0.614 26.419 3.584 52.326 15.974 77.926 34.816-34.816 68.506-67.789 101.274-101.786 10.445-10.752 20.992-15.36 36.045-15.36 14.643 0 25.19 3.891 34.816 14.848 10.752 12.39 23.040 23.347 34.611 35.021 14.336 14.438 14.336 46.080-0.205 60.518-35.123 35.226-70.349 70.349-106.598 106.496 3.891 2.253 5.632 3.482 7.475 4.096zM703.485 191.584c-0.41-24.269 20.685-45.466 44.851-45.158 23.757 0.41 44.032 20.992 43.93 44.544-0.102 23.757-20.275 44.032-44.237 44.134-23.859 0.307-44.237-19.661-44.544-43.52z" />
<glyph unicode="&#xe901;" glyph-name="hourglass" data-tags="hourglass" d="M733.414 117.419c-147.763 0-295.526 0-443.29 0 0 2.048 0.102 4.096 0 6.144-0.307 13.824-1.024 32.666-0.922 46.49 0.41 39.731 6.861 78.131 19.046 115.2 17.203 52.224 43.725 96.256 81.306 130.355 4.506 4.096 9.216 7.885 13.722 11.776-0.205 0.717-0.307 1.126-0.41 1.229-1.331 1.229-2.765 2.355-4.198 3.584-28.058 22.63-50.688 51.405-68.403 85.606-30.618 59.085-43.52 123.597-41.165 192.614 0.205 7.168 0.614 18.33 0.922 25.498 147.763 0 295.526 0 443.29 0 0.205-1.331 0.512-2.662 0.614-3.994 2.662-36.966 1.229-77.722-5.939-113.869-14.336-72.909-44.544-133.837-95.027-179.405-4.096-3.686-8.294-7.066-12.39-10.547 0.205-0.717 0.307-1.126 0.512-1.331 0.819-0.717 1.638-1.434 2.458-2.15 42.189-33.894 71.68-79.872 90.931-135.782 11.776-34.202 18.637-69.837 20.070-106.701 0.819-19.763-0.614-44.851-1.126-64.717zM687.437 160.632c0 6.554 0.205 12.493 0 18.432-1.331 37.581-7.27 74.138-19.866 108.749-17.92 49.562-45.568 88.269-88.678 108.646-2.458 1.126-2.97 3.072-2.97 5.837 0.102 16.691 0.102 33.485 0 50.176 0 3.994 1.331 5.427 4.096 6.963 9.114 5.325 18.432 10.24 26.829 16.896 29.696 23.552 49.152 56.934 62.362 95.744 10.342 30.413 15.77 62.259 17.818 94.822 0.614 9.114 0.102 18.227 0.102 27.546-116.634 0-233.574 0-351.027 0 0.307-8.704 0.614-16.998 1.024-25.395 1.946-37.274 8.499-73.216 21.504-107.213 18.125-47.104 45.261-83.558 86.528-103.117 2.253-1.024 2.867-2.662 2.867-5.427-0.102-17.203-0.102-34.509 0-51.712 0-3.072-1.024-4.506-3.277-5.632-5.632-2.867-11.366-5.734-16.691-9.216-34.304-22.733-56.832-57.754-71.987-100.147-12.493-35.123-18.125-71.987-19.661-109.875-0.205-5.325 0-10.752 0-16.282 117.35 0.205 234.189 0.205 351.027 0.205zM410.342 579.96c68.096 0 135.373 0 203.674 0-3.789-6.554-7.168-12.595-10.752-18.227-10.957-16.998-24.269-30.618-39.731-41.472s-27.75-25.293-32.768-46.592c-1.638-6.963-2.765-14.336-2.867-21.606-0.307-17.203-0.205-34.406 0.307-51.712 0.717-28.058 12.493-48.947 32.154-62.566 43.008-30.003 65.843-75.878 75.776-132.506 0.307-1.638 0.307-3.379 0.614-5.53-83.149 0-166.093 0-249.242 0 2.662 20.685 7.885 40.346 15.462 59.085 13.312 32.973 32.768 59.187 59.494 77.722 16.589 11.469 28.365 27.955 32.358 50.995 0.819 4.813 1.331 9.83 1.434 14.746 0.102 18.637 0.614 37.274-0.205 55.808-1.126 24.678-11.981 43.213-28.57 57.139-9.216 7.782-18.944 14.746-27.648 23.142-11.981 11.162-21.197 25.395-29.491 41.574z" />
<glyph unicode="&#xe902;" glyph-name="plus-icon" data-tags="plus-icon" d="M767.787 391.893c0-19.323-15.664-34.987-34.987-34.987h-151.040v-151.467c0-19.323-15.664-34.987-34.987-34.987h-69.547c-19.323 0-34.987 15.664-34.987 34.987v151.467h-151.467c-19.323 0-34.987 15.664-34.987 34.987v69.547c0 19.323 15.664 34.987 34.987 34.987h151.467v151.467c0 19.323 15.664 34.987 34.987 34.987h69.547c19.323 0 34.987-15.664 34.987-34.987v-151.467h151.467c19.323 0 34.987-15.664 34.987-34.987z" />
<glyph unicode="&#xe903;" glyph-name="video-upload-icon" data-tags="video-upload-icon" d="M395.848 387.201v-128c0-21.333 21.333-42.667 42.667-42.667h128c21.333 0 42.667 17.067 42.667 42.667v128c0 21.333-17.067 42.667-42.667 42.667h-128c-21.333 0-42.667-17.067-42.667-42.667zM796.915 557.867l-102.4 106.667c-12.8 12.8-38.4 21.333-55.467 21.333h-140.8l21.333-42.667h89.6v-136.533c0-17.067 12.8-29.867 29.867-29.867h140.8v-341.333h-426.667v328.533h-42.667v-341.333c0-17.067 12.8-29.867 29.867-29.867h448c17.067 0 29.867 12.8 29.867 29.867v384c4.267 17.067-8.533 38.4-21.333 51.2zM651.848 515.201v123.733c4.267 0 12.8-4.267 12.8-8.533l102.4-102.4c4.267-4.267 4.267-8.533 8.533-12.8h-123.733zM737.181 225.067v196.267c0 4.267-4.267 8.533-8.533 8.533s-8.533 0-12.8-4.267l-89.6-89.6v-29.867l89.6-89.6c8.533-4.267 8.533 0 12.8 0 4.267 4.267 8.533 4.267 8.533 8.533zM361.715 532.267v136.533l59.733-59.733c8.533-8.533 17.067-4.267 25.6 0l12.8 12.8c8.533 8.533 8.533 17.067 0 25.6l-115.2 106.667c-8.533 8.533-17.067 8.533-21.333 0l-115.2-110.933c-4.267-8.533-4.267-17.067 0-25.6l12.8-12.8c8.533-8.533 17.067-8.533 21.333 0l59.733 59.733v-136.533c0-8.533 8.533-17.067 17.067-17.067h25.6c0 0 17.067 8.533 17.067 21.333z" />
<glyph unicode="&#xe904;" glyph-name="play-icon" data-tags="play-icon" d="M375.444 661.357c81.067 46.933 187.733 46.933 273.067 0 42.667-25.6 72.533-55.467 98.133-98.133 72.533-128 29.867-294.4-98.133-371.2-128-72.533-294.4-29.867-371.2 98.133-46.933 81.067-46.933 187.733 0 273.067 21.333 42.667 55.467 72.533 98.133 98.133zM644.244 409.623c12.8 8.533 12.8 29.867 0 38.4l-192 110.933c-8.533 4.267-12.8 4.267-21.333 0s-12.8-12.8-12.8-21.333v-226.133c0-8.533 4.267-17.067 12.8-21.333s17.067-4.267 21.333 0l192 119.467z" />
<glyph unicode="&#xe905;" glyph-name="copy" data-tags="copy" d="M722.133 603.867h-247.733c-65.867 0-119.2-53.333-119.2-119.2v-288.533c0-65.867 53.333-119.2 119.2-119.2h247.867c65.867 0 119.2 53.333 119.2 119.2v288.533c-0.267 65.867-53.467 119.2-119.333 119.2zM778.533 199.2c0-31.333-25.067-56.4-56.4-56.4h-247.867c-31.333 0-56.4 25.067-56.4 56.4v285.467c0 31.333 25.067 56.4 56.4 56.4h247.733c31.333 0 56.4-25.067 56.4-56.4v-285.467zM245.2 368.667v288.533c0 31.333 25.067 56.4 56.4 56.4h247.733c31.333 0 56.4-25.067 56.4-56.4v-18.8h62.667v18.8c0 65.867-53.333 119.2-119.2 119.2h-247.467c-65.867 0-119.2-53.333-119.2-119.2v-288.533c0-65.867 53.333-119.2 119.2-119.2h18.8v62.667h-18.8c-31.467-3.067-56.533 22-56.533 56.533zM681.2 403.2h-163.067c-18.8 0-31.333 12.533-31.333 31.333s12.533 31.333 31.333 31.333h163.067c18.8 0 31.333-12.533 31.333-31.333s-15.6-31.333-31.333-31.333zM681.2 309.067h-163.067c-18.8 0-31.333 12.533-31.333 31.333s12.533 31.333 31.333 31.333h163.067c18.8 0 31.333-12.533 31.333-31.333s-15.6-31.333-31.333-31.333zM681.2 214.934h-163.067c-18.8 0-31.333 12.533-31.333 31.333s12.533 31.333 31.333 31.333h163.067c18.8 0 31.333-12.533 31.333-31.333s-15.6-31.333-31.333-31.333z" />
<glyph unicode="&#xe906;" glyph-name="examples-icon" data-tags="examples-icon" d="M213.333 275.201c89.6 38.4 183.467 68.267 273.067 17.067v281.6c-68.267 46.933-157.867 55.467-234.667 12.8l-38.4-311.467zM810.667 275.201l-42.667 315.733c-72.533 38.4-166.4 34.133-234.667-17.067v-285.867c93.867 51.2 187.733 21.333 277.333-12.8zM832 629.334c-51.2 29.867-110.933 46.933-170.667 55.467-51.2 0-102.4-8.533-149.333-29.867-46.933 21.333-98.133 29.867-149.333 29.867-59.733-4.267-119.467-25.6-170.667-55.467l-64-452.267c0 0 29.867-17.067 110.933 21.333 46.933 25.6 102.4 34.133 157.867 25.6 42.667-4.267 85.333-21.333 115.2-55.467v0c29.867 34.133 72.533 51.2 115.2 55.467 55.467 4.267 106.667-4.267 157.867-29.867 81.067-38.4 110.933-21.333 110.933-21.333l-64 456.533zM793.6 224.001c-42.667 21.333-89.6 34.133-140.8 34.133-8.533 0-21.333 0-29.867 0-42.667-4.267-81.067-17.067-115.2-42.667-34.133 25.6-72.533 38.4-115.2 42.667-12.8 0-21.333 0-34.133 0-46.933 0-93.867-8.533-136.533-29.867-21.333-12.8-46.933-21.333-72.533-25.6l64 413.867c46.933 25.6 98.133 38.4 149.333 42.667 46.933 0 93.867-8.533 136.533-25.6l12.8-8.533 12.8 4.267c42.667 17.067 89.6 25.6 136.533 25.6 51.2-4.267 102.4-17.067 149.333-42.667l59.733-418.133c-29.867 8.533-51.2 17.067-76.8 29.867z" />
<glyph unicode="&#xe907;" glyph-name="tutorials-icon" data-tags="tutorials-icon" d="M887.468 537.598l-375.467-110.933h-4.267l-217.6 68.267c-21.333-25.6-34.133-59.733-34.133-98.133 21.333-12.8 25.6-38.4 12.8-59.733-4.267-4.267-8.533-8.533-12.8-12.8l17.067-145.067c0-4.267 0-4.267-4.267-8.533 0 0 0 0-4.267 0h-64c-4.267 0-4.267 0-8.533 4.267 0 4.267-4.267 4.267-4.267 8.533l17.067 145.067c-12.8 8.533-17.067 21.333-17.067 34.133 0 17.067 8.533 29.867 21.333 38.4 0 38.4 12.8 76.8 34.133 110.933l-106.667 29.867c-8.533 4.267-8.533 8.533-8.533 17.067 0 4.267 4.267 4.267 4.267 4.267l375.467 119.467h4.267l375.467-123.733c4.267 0 8.533-4.267 8.533-8.533s-4.267-8.533-8.533-12.8zM725.334 341.332c4.267-46.933-93.867-85.333-213.333-85.333s-213.333 38.4-213.333 85.333l4.267 106.667 192-64c4.267 0 12.8 0 17.067 0s12.8 0 17.067 4.267l192 59.733 4.267-106.667z" />
<glyph unicode="&#xe908;" glyph-name="info-important-description" data-tags="info-important-description" d="M512 768.017c-188.5 0-341.3-152.8-341.3-341.3s152.8-341.4 341.3-341.4 341.3 152.8 341.3 341.3-152.8 341.4-341.3 341.4v0zM512 113.917c-172.7 0-312.7 140-312.7 312.7s140 312.7 312.7 312.7c172.7 0 312.7-140 312.7-312.7-0.2-172.6-140.1-312.5-312.7-312.7v0zM512 676.217c-137.9 0-249.6-111.8-249.6-249.6s111.7-249.6 249.6-249.6 249.6 111.8 249.6 249.6-111.8 249.6-249.6 249.6v0z" />
<glyph unicode="&#xe909;" glyph-name="icon-info" data-tags="icon-info" d="M468.875 565.974h87.467c0.028 0 0.062 0 0.095 0 6.056 0 11.499 2.629 15.248 6.808 3.979 4.15 6.419 9.769 6.419 15.957 0 0.097-0.001 0.194-0.002 0.29v70.385c0.001 0.082 0.002 0.179 0.002 0.276 0 6.188-2.44 11.806-6.409 15.946-3.759 4.19-9.201 6.819-15.257 6.819-0.033 0-0.067 0-0.1 0h-87.462c-0.028 0-0.062 0-0.095 0-6.056 0-11.499-2.629-15.248-6.808-3.979-4.15-6.419-9.769-6.419-15.957 0-0.097 0.001-0.194 0.002-0.29v-69.959c-0.001-0.082-0.002-0.179-0.002-0.276 0-6.188 2.44-11.806 6.409-15.946 3.715-4.373 9.2-7.159 15.338-7.245zM599.008 263.041h-22.187v209.92c0.001 0.082 0.002 0.179 0.002 0.276 0 6.188-2.44 11.806-6.409 15.946-3.759 4.19-9.201 6.819-15.257 6.819-0.033 0-0.067 0-0.1 0h-130.128c-0.028 0-0.062 0-0.095 0-6.056 0-11.499-2.629-15.248-6.808-3.979-4.15-6.419-9.769-6.419-15.957 0-0.097 0.001-0.194 0.002-0.29v-46.492c-0.001-0.082-0.002-0.179-0.002-0.276 0-6.188 2.44-11.806 6.409-15.946 3.759-4.19 9.201-6.819 15.257-6.819 0.033 0 0.067 0 0.1 0h22.182v-139.947h-22.187c-0.028 0-0.062 0-0.095 0-6.056 0-11.499-2.629-15.248-6.808-3.979-4.15-6.419-9.769-6.419-15.957 0-0.097 0.001-0.194 0.002-0.29v-46.492c-0.001-0.082-0.002-0.179-0.002-0.276 0-6.188 2.44-11.806 6.409-15.946 3.759-4.19 9.201-6.819 15.257-6.819 0.033 0 0.067 0 0.1 0h174.075c0.028 0 0.062 0 0.095 0 6.056 0 11.499 2.629 15.248 6.808 3.979 4.15 6.419 9.769 6.419 15.957 0 0.097-0.001 0.194-0.002 0.29v46.065c0.043 0.527 0.067 1.141 0.067 1.761 0 5.302-1.791 10.185-4.8 14.079-3.742 4.424-9.36 7.247-15.636 7.247-0.489 0-0.975-0.017-1.456-0.051z" />
<glyph unicode="&#xe90a;" glyph-name="paste" data-tags="paste" d="M394.402 745.067h-75.333c-65.867 0-119.2-53.333-119.2-119.2v-288.533c0-56.4 37.6-100.4 87.867-116v69.067c-15.733 9.467-25.067 25.067-25.067 47.067v288.4c0 31.333 25.067 56.4 56.4 56.4h131.733c0 0 0 0 3.2 3.2v0c0 31.333-28.267 59.6-59.6 59.6zM704.802 635.2c0 0-28.267 0-40.8 0-12.533 34.533-43.867 59.6-84.667 59.6s-69.067-25.067-81.6-59.6c-12.533 0-40.8 0-40.8 0-65.867 0-119.2-53.333-119.2-119.2v-288.533c0-65.867 53.333-119.2 119.2-119.2h247.867c65.867 0 119.2 53.333 119.2 119.2v285.467c3.2 65.867-53.2 122.267-119.2 122.267zM582.535 647.867c22 0 40.8-18.8 40.8-40.8s-18.8-40.8-40.8-40.8c-22 0-40.8 18.8-40.8 40.8s15.733 40.8 40.8 40.8zM764.402 224.4c0-31.333-25.067-56.4-56.4-56.4h-250.933c-31.333 0-56.4 25.067-56.4 56.4v288.533c0 18.8 9.467 37.6 25.067 47.067v0c0-43.867 34.533-78.4 78.4-78.4h160c43.867 0 78.4 34.533 78.4 78.4v0c12.533-9.467 22-28.267 22-47.067v-288.533z" />
<glyph unicode="&#xe90b;" glyph-name="reuse" data-tags="reuse" d="M734.974 624.751c-54.605 61.619-134.123 100.573-222.977 100.573-164.936 0-298.661-133.724-298.661-298.661h74.667c0 123.721 100.272 223.993 223.993 223.993 68.214 0 128.747-30.96 169.766-79.119l-70.213-70.213h199.109v199.109l-75.689-75.689zM511.999 202.671c-68.214 0-128.747 30.96-169.766 79.119l70.213 70.213h-199.109v-199.109l75.689 75.689c54.605-61.619 134.123-100.573 222.977-100.573 164.936 0 298.661 133.724 298.661 298.661h-74.667c0-123.721-100.272-223.993-223.993-223.993z" />
<glyph unicode="&#xe90c;" glyph-name="info-outlined" data-tags="info-outlined" d="M467.199 181.336h89.599v268.8h-89.599v-268.8zM512 853.335c-247.296 0-448.001-200.705-448.001-448.001s200.705-448.001 448.001-448.001 448.001 200.705 448.001 448.001-200.705 448.001-448.001 448.001zM512 46.936c-197.568 0-358.398 160.83-358.398 358.398s160.83 358.398 358.398 358.398 358.398-160.83 358.398-358.398-160.83-358.398-358.398-358.398zM467.199 539.734h89.599v89.599h-89.599v-89.599z" />
<glyph unicode="&#xe90d;" glyph-name="spinner" data-tags="spinner" d="M600 808.001c0-48.602-39.398-88-88-88s-88 39.398-88 88 39.398 88 88 88 88-39.398 88-88zM512 133.333c-48.602 0-88-39.398-88-88s39.398-88 88-88 88 39.398 88 88-39.398 88-88 88zM893.334 514.667c-48.602 0-88-39.398-88-88s39.398-88 88-88 88 39.398 88 88-39.398 88-88 88zM218.666 426.667c0 48.602-39.398 88-88 88s-88-39.398-88-88 39.398-88 88-88 88 39.398 88 88zM242.357 245.024c-48.602 0-88-39.398-88-88s39.398-88 88-88 88 39.398 88 88c0 48.6-39.4 88-88 88zM781.643 245.024c-48.602 0-88-39.398-88-88s39.398-88 88-88 88 39.398 88 88c0 48.6-39.398 88-88 88zM242.357 784.31c-48.602 0-88-39.398-88-88s39.398-88 88-88 88 39.398 88 88-39.4 88-88 88z" />
<glyph unicode="&#xe90e;" glyph-name="copy-enabled" data-tags="copy-enabled" d="M614.525 809.292h-317.672c-74.968 0-135.9-60.931-135.9-135.9v-370.388c0-43.817 20.88-82.842 53.231-107.83v70.346c-4.45 11.297-7.016 23.962-7.016 37.484v370.388c0 49.292 40.224 89.516 89.516 89.516h318.014c15.232 0 29.611-3.766 42.107-10.613h68.294c-24.646 34.402-65.039 56.997-110.57 56.997zM674.431 267.403h-209.327c-14.721 0-23.105-8.388-23.105-23.105s8.388-23.105 23.105-23.105h209.327c11.124 0 23.105 8.899 23.105 23.105 0 14.721-8.388 23.105-23.105 23.105zM674.431 388.244h-209.327c-14.721 0-23.105-8.388-23.105-23.105s8.388-23.105 23.105-23.105h209.327c11.124 0 23.105 8.899 23.105 23.105 0 14.721-8.388 23.105-23.105 23.105zM726.978 686.23h-318.014c-74.968 0-135.9-60.931-135.9-135.9v-370.388c0-74.968 60.931-135.9 135.9-135.9v0h318.183c74.968 0 135.9 60.931 135.9 135.9v370.388c-0.342 74.968-61.273 135.9-136.073 135.9zM816.494 183.878c0-49.292-40.224-89.516-89.516-89.516h-318.183c-49.292 0-89.516 40.224-89.516 89.516v366.449c0 49.292 40.224 89.516 89.516 89.516h318.014c49.292 0 89.516-40.224 89.516-89.516v-349.334h0.173v-17.115zM674.431 509.081h-209.327c-14.721 0-23.105-8.388-23.105-23.105s8.388-23.105 23.105-23.105h209.327c11.124 0 23.105 8.899 23.105 23.105 0 14.721-8.388 23.105-23.105 23.105z" />
<glyph unicode="&#xe90f;" glyph-name="copy-disabled" data-tags="copy-disabled" d="M614.525 809.292h-317.672c-74.968 0-135.9-60.931-135.9-135.9v-370.388c0-43.817 20.88-82.842 53.231-107.83v70.346c-4.45 11.297-7.016 23.962-7.016 37.484v370.388c0 49.292 40.224 89.516 89.516 89.516h318.014c15.232 0 29.611-3.766 42.107-10.613h68.294c-24.646 34.402-65.039 56.997-110.57 56.997zM726.978 686.23h-318.014c-74.968 0-135.9-60.931-135.9-135.9v-370.388c0-74.968 60.931-135.9 135.9-135.9v0h318.183c74.968 0 135.9 60.931 135.9 135.9v370.388c-0.342 74.968-61.273 135.9-136.073 135.9zM816.494 183.878c0-49.292-40.224-89.516-89.516-89.516h-318.183c-49.292 0-89.516 40.224-89.516 89.516v366.449c0 49.292 40.224 89.516 89.516 89.516h318.014c49.292 0 89.516-40.224 89.516-89.516v-349.334h0.173v-17.115zM709.521 468.857l-27.728 27.555-109.544-109.544-109.544 109.544-27.555-27.555 109.544-109.544-109.544-109.544 27.555-27.555 109.544 109.544 109.544-109.544 27.555 27.555-109.544 109.544 109.713 109.544z" />
<glyph unicode="&#xe910;" glyph-name="paste-enabled" data-tags="paste-enabled" d="M410.237 57.275c-75.402 0-136.793 61.394-136.793 136.793v373.025c0 75.402 61.394 136.793 136.793 136.793h64.85l4.152 11.413c15.219 41.678 47.732 65.715 89.237 65.715 42.716 0 78.512-25.075 93.212-65.715l4.152-11.413h64.85c37.007 0 73.499-15.911 99.786-43.581 25.594-26.805 38.737-61.048 37.007-96.326v-369.738c0-75.402-61.394-136.793-136.793-136.793l-320.453-0.173zM360.947 638.689c-24.729-15.046-40.64-44.619-40.64-75.575v-373.025c0-49.804 40.467-90.271 90.271-90.271h324.432c43.754 0 80.415 31.476 88.545 72.981h1.73l0.173 17.295v373.025c0 28.708-14.181 58.627-35.277 74.71l-27.67 20.923v-17.468c0-47.213-36.834-84.048-84.048-84.048h-207.351c-47.213 0-84.048 36.834-84.048 84.048v13.489l-26.113-16.084zM572.451 733.631c-27.843 0-48.766-20.923-48.766-48.766 0-26.459 22.307-48.766 48.766-48.766s48.766 22.307 48.766 48.766c0.173 26.286-22.134 48.766-48.766 48.766zM422.169 764.069c7.78 8.818 16.603 16.776 24.383 25.594 1.903 2.076 3.806 4.325 5.709 6.401h-158.585c-75.748 0-137.312-61.567-137.312-137.312v-374.236c0-44.965 21.788-84.913 55.167-109.988v68.829c-5.536 12.278-8.472 26.113-8.472 41.159v374.236c0 49.804 40.64 90.444 90.444 90.444h116.561c3.633 5.19 7.78 10.202 12.105 14.873z" />
<glyph unicode="&#xe911;" glyph-name="paste-disabled" data-tags="paste-disabled" d="M410.237 57.275c-75.402 0-136.793 61.394-136.793 136.793v373.025c0 75.402 61.394 136.793 136.793 136.793h64.85l4.152 11.413c15.219 41.678 47.732 65.715 89.237 65.715 42.716 0 78.512-25.075 93.212-65.715l4.152-11.413h64.85c37.007 0 73.499-15.911 99.786-43.581 25.594-26.805 38.737-61.048 37.007-96.326v-369.738c0-75.402-61.394-136.793-136.793-136.793l-320.453-0.173zM360.947 638.689c-24.729-15.046-40.64-44.619-40.64-75.575v-373.025c0-49.804 40.467-90.271 90.271-90.271h324.432c43.754 0 80.415 31.476 88.545 72.981h1.73l0.173 17.295v373.025c0 28.708-14.181 58.627-35.277 74.71l-27.67 20.923v-17.468c0-47.213-36.834-84.048-84.048-84.048h-207.351c-47.213 0-84.048 36.834-84.048 84.048v13.489l-26.113-16.084zM572.451 733.631c-27.843 0-48.766-20.923-48.766-48.766 0-26.459 22.307-48.766 48.766-48.766s48.766 22.307 48.766 48.766c0.173 26.286-22.134 48.766-48.766 48.766zM422.169 764.069c7.78 8.818 16.603 16.776 24.383 25.594 1.903 2.076 3.806 4.325 5.709 6.401h-158.585c-75.748 0-137.312-61.567-137.312-137.312v-374.236c0-44.965 21.788-84.913 55.167-109.988v68.829c-5.536 12.278-8.472 26.113-8.472 41.159v374.236c0 49.804 40.64 90.444 90.444 90.444h116.561c3.633 5.19 7.78 10.202 12.105 14.873zM718.585 463.848l-28.016 27.843-110.68-110.68-110.68 110.68-27.843-27.843 110.68-110.68-110.68-110.68 27.843-27.843 110.68 110.68 110.68-110.68 27.843 27.843-110.68 110.68 110.853 110.68z" />
<glyph unicode="&#xe912;" glyph-name="button-disabled" data-tags="button-disabled" d="M853.333 699.246l-68.754 68.754-272.579-272.579-272.579 272.579-68.754-68.754 272.579-272.579-272.579-272.579 68.754-68.754 272.579 272.579 272.579-272.579 68.754 68.754-272.579 272.579z" />
<glyph unicode="&#xe913;" glyph-name="audio-icon" data-tags="audio-icon" d="M472.8 590.2v-319.3c0-10.3-8.3-18.7-18.6-18.8-5 0-9.9 2-13.4 5.6l-97.8 97.7h-77c-10.3 0.2-18.7 8.5-18.8 18.8v112.6c0.2 10.3 8.5 18.7 18.8 18.8h76.9l97.8 97.8c7.4 7.3 19.3 7.2 26.6-0.2 3.4-3.5 5.4-8.1 5.4-13h0.1zM585.9 472.6c8.2-12.5 12.6-27.2 12.6-42.1s-4.4-29.5-12.6-42c-7.9-12.6-19.7-22.4-33.6-27.9-2.3-1.1-4.9-1.6-7.4-1.5-5 0-9.8 1.9-13.3 5.5-3.8 3.5-5.9 8.4-5.8 13.5-0.1 3.8 1.2 7.6 3.6 10.5s5.3 5.4 8.6 7.4c3.3 2.1 6.7 4.3 10.1 6.8 3.6 2.8 6.6 6.4 8.6 10.5 4.7 10.8 4.7 23 0 33.8-2 4.1-5 7.7-8.6 10.5-3.3 2.5-6.7 4.7-10.1 6.8-3.3 2-6.2 4.5-8.6 7.4-2.4 3-3.7 6.7-3.6 10.5-0.1 5.1 2.1 10 5.8 13.5 3.5 3.6 8.3 5.5 13.3 5.5 2.6 0.1 5.1-0.4 7.4-1.5 13.8-5 25.6-14.6 33.6-27.2v0zM663.3 514.3c33.6-50.8 33.6-116.8 0-167.6-16-25.1-39.2-44.6-66.6-56.2-2.4-1-4.9-1.5-7.4-1.5-5.2 0-10.1 2.1-13.6 5.8-3.7 3.4-5.8 8.3-5.8 13.3 0 7.7 4.6 14.6 11.7 17.5 7.8 3.8 15.4 8.2 22.6 13 50.6 36.9 61.8 107.8 24.9 158.4-7 9.6-15.4 18-24.9 24.9-7.2 4.9-14.7 9.3-22.6 13.1-7.1 2.9-11.7 9.8-11.7 17.5 0.1 10.4 8.6 18.9 19 19 2.6 0 5.3-0.5 7.7-1.5 27.3-11.2 50.6-30.7 66.7-55.7zM741 555.8c69.3-105.1 40.2-246.4-64.9-315.7-11.2-7.4-23.1-13.8-35.4-19.1-2.5-1-5.1-1.5-7.7-1.5-10.4 0.2-18.8 8.6-19 19 0.3 7.6 4.8 14.4 11.7 17.5 2.2 1.2 4.4 2.2 6.7 3.1s4.5 1.9 6.7 3.1c8.4 4.5 16.5 9.6 24.3 15.1 24 17.6 43.6 40.7 57 67.3 27.3 53.9 27.3 117.5 0 171.4-13.4 26.7-33 49.8-57 67.4-7.8 5.5-15.9 10.6-24.3 15.1-2.2 1.2-4.4 2.2-6.7 3.1s-4.5 1.9-6.7 3.1c-6.9 3.2-11.4 9.9-11.7 17.5 0.3 10.4 8.8 18.6 19.2 18.7 2.6 0 5.3-0.5 7.7-1.5 41-17.3 75.9-46.5 100.3-83.8h-0.2z" />
<glyph unicode="&#xe914;" glyph-name="audio-upload-icon" data-tags="audio-upload-icon" d="M796.9 557.9l-102.4 106.6c-12.8 12.8-38.4 21.3-55.5 21.3h-140.8l21.3-42.7h89.6v-136.5c0-17.1 12.8-29.9 29.9-29.9h140.8v-341.3h-426.6v328.6h-42.7v-341.3c0-17.1 12.8-29.9 29.9-29.9h448c17.1 0 29.9 12.8 29.9 29.9v384c4.2 17-8.6 38.4-21.4 51.2zM651.8 515.2v123.7c4.3 0 12.8-4.3 12.8-8.5l102.4-102.4c4.3-4.3 4.3-8.5 8.5-12.8h-123.7zM361.7 532.3v136.5l59.7-59.7c8.5-8.5 17.1-4.3 25.6 0l12.8 12.8c8.5 8.5 8.5 17.1 0 25.6l-115.2 106.6c-8.5 8.5-17.1 8.5-21.3 0l-115.2-110.9c-4.3-8.5-4.3-17.1 0-25.6l12.8-12.8c8.5-8.5 17.1-8.5 21.3 0l59.7 59.7v-136.5c0-8.5 8.5-17.1 17.1-17.1h25.6c0 0 17.1 8.6 17.1 21.4zM532.7 401.8v-188c0-5.2-5.2-10.4-5.2-10.4h-5.2c-5.2 0-5.2 0-10.4 5.2l-57.5 57.4h-47c-5.2 0-10.4 5.2-10.4 10.4v62.7c0 5.2 5.2 10.4 10.4 10.4h47l57.5 57.5c5.2 5.2 12.8 9.7 16.5 6s4.3-6 4.3-11.2zM616.3 229.5c20.9 20.9 31.3 47 31.3 78.3s-10.4 57.5-31.3 78.3c-10.4 10.4-20.9 10.4-31.3 0s-10.4-20.9 0-31.3c10.4-10.4 15.7-26.1 15.7-47s-5.2-31.3-15.7-47c-10.4-10.4-10.4-20.9 0-31.3 5.2-5.2 10.4-5.2 15.7-5.2s10.4-0.1 15.6 5.2zM689.4 177.2c31.3 36.6 47 78.3 47 125.4 0 47-15.7 88.8-47 125.4-10.4 15.7-20.9 15.7-31.3 10.4-10.4-10.4-10.4-20.9-5.2-31.3 20.9-26.1 36.6-62.7 36.6-99.2s-10.4-73.1-36.6-99.2c-10.4-10.4-5.2-26.1 5.2-31.3 5.2-5.2 10.4-5.2 15.7-5.2s10.4-0.2 15.6 5z" />
</font>
</defs>
</svg>
